<?xml version="1.0" standalone="no"?>
<!DOCTYPE svg PUBLIC "-//W3C//DTD SVG 1.1//EN" "http://www.w3.org/Graphics/SVG/1.1/DTD/svg11.dtd">
<svg xmlns="http://www.w3.org/2000/svg">
<defs >
<font id="MPLUS1p" horiz-adv-x="907" ><font-face
    font-family="Mplus 1p"
    units-per-em="1000"
    panose-1="2 11 5 2 2 2 3 2 2 7"
    ascent="1075"
    descent="-320"
    alphabetic="0" />
<glyph unicode=" " glyph-name="space" horiz-adv-x="290" />
<glyph unicode="!" glyph-name="exclam" horiz-adv-x="363" d="M135 730H228L218 203H145L135 730ZM138 0V123H225V0H138Z" />
<glyph unicode="&quot;" glyph-name="quotedbl" horiz-adv-x="400" d="M70 770H150L140 523H80L70 770ZM250 770H330L320 523H260L250 770Z" />
<glyph unicode="#" glyph-name="numbersign" horiz-adv-x="678" d="M50 192V256H172L214 494H101V558H226L256 730H330L299 558H446L476 730H550L519 558H628V494H508L466 256H577V192H454L420 0H347L381 192H234L200 0H127L161 192H50ZM434 494H288L246 256H392L434
494Z" />
<glyph unicode="$" glyph-name="dollar" horiz-adv-x="605" d="M328 649V403Q446 373 493 327T540 200Q540 119 486 71T328 16V-85H265V16Q154 20 55 70L75 135Q165 87 265 81V348Q155 377 107 423T58 543Q58 619 110 663T265 714V815H328V714Q429 709 522 675L503
610Q419 644 328 649ZM328 82Q463 95 463 200Q463 252 433 282T328 333V82ZM265 649Q134 640 134 543Q134 496 164 467T265 419V649Z" />
<glyph unicode="%" glyph-name="percent" horiz-adv-x="847" d="M590 730H671L257 0H176L590 730ZM638 313Q547 313 547 182Q547 50 638 50Q730 50 730 182Q730 313 638 313ZM208 680Q117 680 117 548Q117 417 208 417Q300 417 300 548Q300 680 208 680ZM718 -10T638
-10T514 40T470 182T514 323T638 373T762 323T807 182T763 41ZM288 357T208 357T84 407T40 548T84 689T208 740T332 690T377 548T333 407Z" />
<glyph unicode="&amp;" glyph-name="ampersand" horiz-adv-x="712" d="M278 350Q197 297 164 256T130 173Q130 116 170 85T287 54Q348 54 394 70T493 124L278 350ZM340 389L518 200V418H593V120L707 0H611L544 71Q418 -10 283 -10Q168 -10 109 36T50 170Q50 226
91 279T232 398L220 411Q165 468 143 510T120 593Q120 659 171 699T312 740Q403 740 451 702T500 597Q500 542 465 496T340 389ZM294 438Q374 492 399 523T425 593Q425 677 312 677Q259 677 229 654T199 593Q199 561 216 532T294 438Z" />
<glyph unicode="&apos;" glyph-name="quotesingle" horiz-adv-x="237" d="M75 770H162L152 523H85L75 770Z" />
<glyph unicode="(" glyph-name="parenleft" horiz-adv-x="385" d="M70 181T70 315T120 566T264 770H340Q147 588 147 315T340 -140H264Q170 -53 120 64Z" />
<glyph unicode=")" glyph-name="parenright" horiz-adv-x="385" d="M315 449T315 315T265 64T121 -140H45Q238 42 238 315T45 770H121Q215 683 265 566Z" />
<glyph unicode="*" glyph-name="asterisk" horiz-adv-x="527" d="M477 572L312 520L415 382L363 344L263 485L164 344L112 382L215 520L50 572L70 633L234 577L231 750H295L293 577L457 633L477 572Z" />
<glyph unicode="+" glyph-name="plus" horiz-adv-x="733" d="M400 580V322H653V258H400V0H333V258H80V322H333V580H400Z" />
<glyph unicode="," glyph-name="comma" horiz-adv-x="304" d="M133 137H234L134 -110H60L133 137Z" />
<glyph unicode="-" glyph-name="hyphen" horiz-adv-x="457" d="M80 258V322H377V258H80Z" />
<glyph unicode="." glyph-name="period" horiz-adv-x="283" d="M95 0V140H188V0H95Z" />
<glyph unicode="/" glyph-name="slash" horiz-adv-x="507" d="M457 730L112 -40H35L379 730H457Z" />
<glyph unicode="0" glyph-name="zero" horiz-adv-x="620" d="M309 740Q573 740 573 365T309 -10Q184 -10 115 77T46 365T115 653T309 740ZM217 55T309 55T447 128T493 365T447 601T309 675T172 602T126 365T171 129Z" />
<glyph unicode="1" glyph-name="one" horiz-adv-x="620" d="M311 0V634H309L112 452L81 517L311 730H391V0H311Z" />
<glyph unicode="2" glyph-name="two" horiz-adv-x="620" d="M295 672Q196 672 97 603L73 667Q175 740 305 740Q412 740 471 686T530 533T459 335T193 69V67H533V0H83V67Q296 243 371 341T447 527Q447 598 409 635T295 672Z" />
<glyph unicode="3" glyph-name="three" horiz-adv-x="620" d="M85 730H523V663L283 428V426H314Q420 426 476 375T533 227Q533 113 466 52T273 -10Q165 -10 83 42L107 107Q191 57 273 57Q361 57 407 100T453 227Q453 298 406 332T254 367H181V429L420 661V663H85V730Z" />
<glyph unicode="4" glyph-name="four" horiz-adv-x="620" d="M365 235V613H363L97 237V235H365ZM444 235H568V170H444V0H365V170H15V235L365 730H444V235Z" />
<glyph unicode="5" glyph-name="five" horiz-adv-x="620" d="M512 663H196L182 427H184Q243 462 317 462Q424 462 483 404T542 240Q542 118 474 54T273 -10Q171 -10 85 38L105 104Q189 57 273 57Q462 57 462 240Q462 317 421 357T303 398Q224 398 172 352H102L124
730H512V663Z" />
<glyph unicode="6" glyph-name="six" horiz-adv-x="620" d="M313 428Q236 428 186 378T136 250Q136 157 183 107T313 57Q398 57 445 107T492 250Q492 332 444 380T313 428ZM313 -10Q192 -10 124 63T55 273Q55 476 153 600T425 740L439 673Q209 647 147 414L148
413Q217 490 330 490Q441 490 506 426T572 250Q572 131 501 61T313 -10Z" />
<glyph unicode="7" glyph-name="seven" horiz-adv-x="620" d="M78 730H548V663Q373 376 258 0H175Q291 365 470 661V663H78V730Z" />
<glyph unicode="8" glyph-name="eight" horiz-adv-x="620" d="M199 740T309 740T482 692T546 565Q546 444 406 394V392Q573 343 573 197Q573 102 503 46T309 -10T116 46T46 197Q46 261 89 311T212 386V388Q145 413 109 459T72 565Q72 644 135 692ZM309 420Q386
436 429 472T472 558Q472 612 429 644T309 676Q233 676 192 645T150 558Q150 508 191 472T309 420ZM306 357Q215 339 169 298T122 200Q122 132 172 93T309 54T445 93T494 200Q494 321 306 357Z" />
<glyph unicode="9" glyph-name="nine" horiz-adv-x="620" d="M306 740Q428 740 496 668T565 462Q565 253 465 130T185 -10L171 57Q293 70 367 134T473 317L471 318Q401 240 289 240Q178 240 113 305T48 485Q48 601 118 670T306 740ZM306 673Q221 673 175 624T128
485Q128 399 176 351T306 302Q383 302 433 353T483 485Q483 574 436 623T306 673Z" />
<glyph unicode=":" glyph-name="colon" horiz-adv-x="363" d="M135 387V527H228V387H135ZM135 0V140H228V0H135Z" />
<glyph unicode=";" glyph-name="semicolon" horiz-adv-x="384" d="M80 -110L153 137H254L154 -110H80ZM148 387V527H242V387H148Z" />
<glyph unicode="&lt;" glyph-name="less" horiz-adv-x="667" d="M572 493L114 291V289L572 87V17L65 249V331L572 563V493Z" />
<glyph unicode="=" glyph-name="equal" horiz-adv-x="753" d="M90 373V437H663V373H90ZM90 143V207H663V143H90Z" />
<glyph unicode="&gt;" glyph-name="greater" horiz-adv-x="667" d="M95 493V563L602 331V249L95 17V87L552 289V291L95 493Z" />
<glyph unicode="?" glyph-name="question" horiz-adv-x="611" d="M463 570Q463 672 293 672Q189 672 80 637L65 705Q183 740 303 740Q420 740 483 697T546 577Q546 530 525 493T483 438T421 393Q389 372 373 359T336 323T305 272T296 207H216Q216 251 227 285T262
347T304 389T356 426Q384 445 397 455T429 484T455 523T463 570ZM213 0V123H299V0H213Z" />
<glyph unicode="@" glyph-name="at" horiz-adv-x="823" d="M508 113H506Q457 47 375 47Q301 47 256 103T210 260Q210 362 254 417T375 473Q456 473 507 408H508V465H586V115H691Q723 179 723 260Q723 400 637 486T412 572Q274 572 187 485T100 260T187 35T412
-52Q518 -52 597 4L632 -44Q538 -112 412 -112Q252 -112 146 -8T40 260Q40 423 145 527T412 632Q576 632 679 529T783 260Q783 145 728 55H510L508 113ZM289 331T289 260T318 151T397 112Q447 112 475 148T504 251V269Q504 335 475 371T397 408Q346 408 318 370Z"
/>
<glyph unicode="A" glyph-name="A" horiz-adv-x="693" d="M35 0L302 730H392L658 0H573L499 213H191L118 0H35ZM213 277H477L346 658H344L213 277Z" />
<glyph unicode="B" glyph-name="B" horiz-adv-x="598" d="M262 675Q210 675 165 666V425H232Q450 425 450 553Q450 615 405 645T262 675ZM558 210Q558 -10 272 -10Q178 -10 85 6V724Q173 740 262 740Q525 740 525 563Q525 501 485 457T375 398V396Q463 383 510
334T558 210ZM480 217Q480 291 422 326T232 361H165V64Q214 55 272 55Q480 55 480 217Z" />
<glyph unicode="C" glyph-name="C" horiz-adv-x="695" d="M410 673Q278 673 200 590T121 365T201 141T410 57Q514 57 603 114L630 54Q532 -10 403 -10Q238 -10 139 92T40 365Q40 538 138 639T403 740Q532 740 630 676L603 616Q514 673 410 673Z" />
<glyph unicode="D" glyph-name="D" horiz-adv-x="682" d="M262 673Q210 673 165 664V66Q210 57 262 57Q565 57 565 375Q565 523 488 598T262 673ZM642 375Q642 186 544 88T262 -10Q173 -10 85 6V724Q175 740 262 740Q445 740 543 646T642 375Z" />
<glyph unicode="E" glyph-name="E" horiz-adv-x="587" d="M165 663V425H492V361H165V67H512V0H85V730H512V663H165Z" />
<glyph unicode="F" glyph-name="F" horiz-adv-x="572" d="M502 663H165V415H482V351H165V0H85V730H502V663Z" />
<glyph unicode="G" glyph-name="G" horiz-adv-x="745" d="M423 675Q282 675 202 591T121 365Q121 222 204 139T430 55Q519 55 593 88V361H340V425H670V45Q557 -10 423 -10Q249 -10 145 92T40 365T142 638T417 740Q544 740 643 680L616 621Q526 675 423 675Z" />
<glyph unicode="H" glyph-name="H" horiz-adv-x="710" d="M165 730V425H545V730H625V0H545V361H165V0H85V730H165Z" />
<glyph unicode="I" glyph-name="I" horiz-adv-x="317" d="M115 0V730H202V0H115Z" />
<glyph unicode="J" glyph-name="J" horiz-adv-x="527" d="M452 730V267Q452 123 386 57T182 -10Q97 -10 25 27L44 94Q115 57 182 57Q368 57 368 280V730H452Z" />
<glyph unicode="K" glyph-name="K" horiz-adv-x="633" d="M165 730V405H167L491 730H588L237 380L598 0H502L167 356H165V0H85V730H165Z" />
<glyph unicode="L" glyph-name="L" horiz-adv-x="585" d="M168 730V68H525V0H85V730H168Z" />
<glyph unicode="M" glyph-name="M" horiz-adv-x="857" d="M85 0V730H166L426 290H428L688 730H772V0H692V596H690L464 217H390L164 596H162V0H85Z" />
<glyph unicode="N" glyph-name="N" horiz-adv-x="713" d="M85 0V730H168L548 130H550V730H628V0H546L166 600H164V0H85Z" />
<glyph unicode="O" glyph-name="O" horiz-adv-x="793" d="M558 -10T397 -10T138 92T40 365T138 637T397 740T655 638T753 365T656 93ZM397 57Q521 57 596 140T672 365T597 589T397 673Q272 673 197 590T121 365T196 141T397 57Z" />
<glyph unicode="P" glyph-name="P" horiz-adv-x="600" d="M85 724Q189 740 288 740Q424 740 494 683T565 518Q565 402 494 342T288 282Q222 282 165 288V0H85V724ZM165 354Q223 346 282 346Q381 346 433 389T486 512T435 633T282 675Q227 675 165 665V354Z" />
<glyph unicode="Q" glyph-name="Q" horiz-adv-x="785" d="M397 673Q272 673 197 590T121 365T196 141T397 57Q521 57 596 140T672 365T597 589T397 673ZM397 -10Q236 -10 138 92T40 365T138 637T397 740T655 638T753 365Q753 246 700 159T551 29V27Q626 6 688
-40T790 -150H695Q642 -71 577 -41T397 -10Z" />
<glyph unicode="R" glyph-name="R" horiz-adv-x="620" d="M85 0V725Q172 740 272 740Q412 740 483 689T555 542Q555 466 514 415T398 345V343Q443 319 487 213L575 0H492L406 211Q376 283 350 300T245 318H165V0H85ZM165 382H245Q364 382 420 420T476 535Q476
675 265 675Q212 675 165 666V382Z" />
<glyph unicode="S" glyph-name="S" horiz-adv-x="573" d="M287 675Q218 675 180 645T142 560Q142 463 284 420Q408 384 460 330T513 190Q513 93 453 42T280 -10Q156 -10 60 53L84 119Q171 57 280 57Q354 57 393 91T433 190Q433 250 400 285T282 347Q63 412 63
560Q63 642 122 691T287 740Q400 740 497 693L477 631Q390 675 287 675Z" />
<glyph unicode="T" glyph-name="T" horiz-adv-x="653" d="M60 730H593V662H367V0H287V662H60V730Z" />
<glyph unicode="U" glyph-name="U" horiz-adv-x="683" d="M156 58T343 58T530 283V730H608V287Q608 141 540 66T342 -10T144 65T75 287V730H156V283Q156 58 343 58Z" />
<glyph unicode="V" glyph-name="V" horiz-adv-x="693" d="M121 730L347 79H349L575 730H658L392 0H302L35 730H121Z" />
<glyph unicode="W" glyph-name="W" horiz-adv-x="953" d="M127 730L274 86H276L426 730H530L680 86H682L829 730H908L729 0H628L478 644H476L325 0H225L45 730H127Z" />
<glyph unicode="X" glyph-name="X" horiz-adv-x="650" d="M143 730L325 426H327L510 730H600L376 370L605 0H511L325 314H323L136 0H45L274 370L50 730H143Z" />
<glyph unicode="Y" glyph-name="Y" horiz-adv-x="670" d="M124 730L335 376H337L549 730H640L377 309V0H293V309L30 730H124Z" />
<glyph unicode="Z" glyph-name="Z" horiz-adv-x="637" d="M75 730H562V663L169 69V67H562V0H75V67L468 661V663H75V730Z" />
<glyph unicode="[" glyph-name="bracketleft" horiz-adv-x="470" d="M188 710V-80H385V-140H115V770H385V710H188Z" />
<glyph unicode="\" glyph-name="backslash" horiz-adv-x="507" d="M50 730H127L472 -40H394L50 730Z" />
<glyph unicode="]" glyph-name="bracketright" horiz-adv-x="470" d="M282 710H85V770H355V-140H85V-80H282V710Z" />
<glyph unicode="^" glyph-name="asciicircum" horiz-adv-x="653" d="M40 280L278 730H375L613 280H531L327 679H326L122 280H40Z" />
<glyph unicode="_" glyph-name="underscore" horiz-adv-x="583" d="M-2 -140V-80H585V-140H-2Z" />
<glyph unicode="`" glyph-name="grave" horiz-adv-x="278" d="M123 810L238 563H171L15 810H123Z" />
<glyph unicode="a" glyph-name="a" horiz-adv-x="548" d="M265 530Q374 530 421 485T468 337V140Q468 69 483 0H413Q405 39 403 92H401Q374 44 323 17T208 -10Q136 -10 93 30T50 140Q50 227 126 278T342 330H395V335Q395 411 367 440T265 470Q171 470 90 424L77
483Q163 530 265 530ZM122 143Q122 98 150 73T225 47Q294 47 344 96T395 218V274H342Q237 274 180 239T122 143Z" />
<glyph unicode="b" glyph-name="b" horiz-adv-x="578" d="M323 -10Q208 -10 153 88H151L150 0H80V750H153V435H155Q210 530 323 530Q421 530 477 461T533 260Q533 131 476 61T323 -10ZM461 260Q461 362 421 416T307 470Q239 470 196 416T153 267V253Q153 156 196
103T307 50Q378 50 419 104T461 260Z" />
<glyph unicode="c" glyph-name="c" horiz-adv-x="522" d="M303 469Q215 469 166 415T117 260Q117 164 168 107T303 50Q373 50 437 84L457 25Q382 -10 300 -10Q184 -10 112 63T40 260Q40 387 109 458T300 530Q382 530 457 495L437 434Q370 469 303 469Z" />
<glyph unicode="d" glyph-name="d" horiz-adv-x="578" d="M117 361T117 260T159 105T272 50Q340 50 382 103T425 253V267Q425 362 383 416T272 470Q199 470 158 416ZM45 260Q45 391 101 460T255 530Q368 530 423 435H425V750H498V0H428L427 88H425Q370 -10 255
-10Q159 -10 102 60T45 260Z" />
<glyph unicode="e" glyph-name="e" horiz-adv-x="552" d="M115 232Q117 147 167 98T297 49Q374 49 450 89L470 32Q386 -10 290 -10Q178 -10 109 63T40 260Q40 386 104 458T280 530Q388 530 447 462T507 265Q507 252 505 232H115ZM115 290H435Q434 377 393 424T280
471Q205 471 162 424T115 290Z" />
<glyph unicode="f" glyph-name="f" horiz-adv-x="522" d="M55 500H192V567Q192 740 358 740Q404 740 452 725L436 665Q399 680 365 680Q311 680 289 655T266 567V500H445V440H266V0H192V440H55V500Z" />
<glyph unicode="g" glyph-name="g" horiz-adv-x="573" d="M117 270Q117 177 158 124T268 70Q337 70 381 122T425 265V275Q425 365 381 417T268 470Q197 470 157 419T117 270ZM45 270Q45 395 100 462T252 530Q369 530 425 433H427L428 520H498V43Q498 -230 255
-230Q170 -230 93 -198L110 -139Q181 -170 255 -170Q343 -170 384 -121T425 40V104H423Q369 10 252 10Q161 10 103 80T45 270Z" />
<glyph unicode="h" glyph-name="h" horiz-adv-x="573" d="M80 750H153V431H155Q221 530 330 530Q418 530 460 476T503 303V0H431V297Q431 394 403 431T307 469Q247 469 200 411T153 278V0H80V750Z" />
<glyph unicode="i" glyph-name="i" horiz-adv-x="307" d="M115 640V750H192V640H115ZM115 0V520H192V0H115Z" />
<glyph unicode="j" glyph-name="j" horiz-adv-x="347" d="M232 520V10Q232 -130 179 -180T-22 -230L-25 -169Q84 -169 119 -136T154 6V520H232ZM154 640V750H232V640H154Z" />
<glyph unicode="k" glyph-name="k" horiz-adv-x="562" d="M153 750V301H155L417 520H512L215 273L517 0H422L155 245H153V0H80V750H153Z" />
<glyph unicode="l" glyph-name="l" horiz-adv-x="307" d="M115 0V750H192V0H115Z" />
<glyph unicode="m" glyph-name="m" horiz-adv-x="805" d="M75 520H145L146 434H148Q203 530 285 530Q385 530 425 430H427Q480 530 578 530Q659 530 697 483T735 330V0H663V310Q663 401 640 435T562 470Q514 470 478 422T442 305V0H370V310Q370 400 347 435T268
470Q223 470 186 418T148 292V0H75V520Z" />
<glyph unicode="n" glyph-name="n" horiz-adv-x="568" d="M75 520H145L146 427H148Q178 475 224 502T325 530Q413 530 455 476T498 303V0H426V297Q426 394 398 431T302 469Q244 469 196 412T148 278V0H75V520Z" />
<glyph unicode="o" glyph-name="o" horiz-adv-x="570" d="M364 470T285 470T161 415T115 260T160 106T285 50T409 105T455 260T410 414ZM396 -10T285 -10T107 63T40 260T107 457T285 530T463 457T530 260T463 63Z" />
<glyph unicode="p" glyph-name="p" horiz-adv-x="573" d="M318 -10Q205 -10 150 81H148V-220H75V520H145L146 432H148Q203 530 318 530Q416 530 472 461T528 260Q528 132 471 61T318 -10ZM456 260Q456 362 416 416T302 470Q233 470 191 416T148 267V253Q148 156
191 103T302 50Q373 50 414 104T456 260Z" />
<glyph unicode="q" glyph-name="q" horiz-adv-x="573" d="M255 -10Q160 -10 103 61T45 260Q45 391 101 460T255 530Q370 530 425 432H427L428 520H498V-220H425V81H423Q368 -10 255 -10ZM117 361T117 260T159 105T272 50Q340 50 382 103T425 253V267Q425 362 383
416T272 470Q199 470 158 416Z" />
<glyph unicode="r" glyph-name="r" horiz-adv-x="453" d="M75 520H146L148 409H150Q238 530 398 530V467Q287 467 219 406T150 248V0H75V520Z" />
<glyph unicode="s" glyph-name="s" horiz-adv-x="497" d="M247 530Q342 530 423 490L407 431Q330 470 247 470Q189 470 159 449T128 390Q128 354 154 333T251 300Q353 283 397 244T442 137T391 30T247 -10Q140 -10 55 40L72 99Q154 50 247 50Q305 50 336 72T367
137Q367 177 340 199T243 233Q144 250 100 287T55 390Q55 454 105 492T247 530Z" />
<glyph unicode="t" glyph-name="t" horiz-adv-x="512" d="M240 690V500H437V440H240V167Q240 97 259 74T330 50Q376 50 418 67L430 8Q379 -10 320 -10Q235 -10 200 26T165 153V440H50V500H165V690H240Z" />
<glyph unicode="u" glyph-name="u" horiz-adv-x="558" d="M142 520V197Q142 117 168 85T257 53Q315 53 362 109T410 242V520H483V0H413L412 93H410Q380 45 334 18T233 -10Q149 -10 110 37T70 190V520H142Z" />
<glyph unicode="v" glyph-name="v" horiz-adv-x="557" d="M117 520L279 45H281L442 520H522L330 0H227L35 520H117Z" />
<glyph unicode="w" glyph-name="w" horiz-adv-x="810" d="M127 520L242 66H244L355 520H458L569 66H571L686 520H765L617 0H517L406 447H404L293 0H193L45 520H127Z" />
<glyph unicode="x" glyph-name="x" horiz-adv-x="553" d="M141 520L277 313H279L415 520H498L321 264L503 0H417L276 216H274L134 0H50L233 264L55 520H141Z" />
<glyph unicode="y" glyph-name="y" horiz-adv-x="557" d="M116 520L271 92H273L444 520H522L212 -220H134L232 3L35 520H116Z" />
<glyph unicode="z" glyph-name="z" horiz-adv-x="547" d="M75 520H472V460L167 62V60H472V0H75V60L380 458V460H75V520Z" />
<glyph unicode="{" glyph-name="braceleft" horiz-adv-x="513" d="M423 710H357Q303 710 282 689T260 600V467Q260 354 177 316V314Q260 276 260 163V30Q260 -38 281 -59T357 -80H423V-140H323Q251 -140 219 -105T187 10V160Q187 283 103 283H60V347H103Q187 347
187 470V620Q187 700 219 735T323 770H423V710Z" />
<glyph unicode="|" glyph-name="bar" horiz-adv-x="343" d="M135 -220V810H208V-220H135Z" />
<glyph unicode="}" glyph-name="braceright" horiz-adv-x="513" d="M90 710V770H190Q262 770 294 735T327 620V470Q327 347 410 347H453V283H410Q327 283 327 160V10Q327 -70 295 -105T190 -140H90V-80H157Q211 -80 232 -59T253 30V163Q253 276 337 314V316Q253
354 253 467V600Q253 668 232 689T157 710H90Z" />
<glyph unicode="~" glyph-name="asciitilde" horiz-adv-x="690" d="M326 276Q231 320 188 320Q154 320 138 297T122 220H55Q55 387 178 387Q244 387 364 331Q459 287 502 287Q536 287 552 308T568 377H635Q635 220 512 220Q446 220 326 276Z" />
<glyph unicode="&#xa0;" glyph-name="uni00A0" horiz-adv-x="290" />
<glyph unicode="&#xa1;" glyph-name="exclamdown" horiz-adv-x="323" d="M125 317H198L208 -220H115L125 317ZM118 397V520H205V397H118Z" />
<glyph unicode="&#xa2;" glyph-name="cent" horiz-adv-x="548" d="M275 528V690H335V529Q411 524 474 495L463 434Q402 465 335 468V50Q397 53 463 85L483 25Q417 -4 335 -9V-180H275V-8Q168 4 104 75T40 260Q40 377 102 447T275 528ZM275 54V466Q199 454 158
401T117 260Q117 177 160 122T275 54Z" />
<glyph unicode="&#xa3;" glyph-name="sterling" horiz-adv-x="643" d="M187 69V67H568V0H75V67Q119 70 150 115T182 233V338H93V398H182V540Q182 635 239 687T403 740Q472 740 538 714L524 648Q472 672 412 672Q262 672 262 532V398H507V338H262V233Q262 177 241
133T187 69Z" />
<glyph unicode="&#xa4;" glyph-name="currency" horiz-adv-x="672" d="M569 641L612 598L518 505Q566 443 566 365T518 225L612 132L569 89L476 183Q414 135 336 135T196 183L102 89L60 132L153 225Q106 286 106 365T153 505L60 598L102 641L196 547Q258 595 336
595T476 547L569 641ZM268 202T336 202T451 250T499 365T452 480T336 528T220 480T172 365T220 250Z" />
<glyph unicode="&#xa5;" glyph-name="yen" horiz-adv-x="680" d="M83 152V205H298V300H83V353H271L35 730H129L340 376H342L554 730H645L409 353H597V300H382V205H597V152H382V0H298V152H83Z" />
<glyph unicode="&#xa6;" glyph-name="brokenbar" horiz-adv-x="343" d="M135 -140V220H208V-140H135ZM135 370V730H208V370H135Z" />
<glyph unicode="&#xa7;" glyph-name="section" horiz-adv-x="520" d="M65 575Q65 647 119 693T260 740Q358 740 447 696L429 632Q344 675 267 675Q207 675 173 648T138 575Q138 533 165 507T263 467Q368 446 414 403T460 289Q460 196 380 151Q455 106 455 15Q455
-57 401 -103T260 -150Q162 -150 73 -106L91 -42Q176 -85 253 -85Q313 -85 347 -58T382 15Q382 57 355 83T257 123Q152 144 106 187T60 301Q60 394 140 439Q65 484 65 575ZM199 413Q125 385 125 312Q125 264 157 236T266 191Q301 184 321 177Q395 205 395 278Q395
326 363 354T254 399Q219 406 199 413Z" />
<glyph unicode="&#xa8;" glyph-name="dieresis" horiz-adv-x="443" d="M285 610V737H358V610H285ZM85 610V737H158V610H85Z" />
<glyph unicode="&#xa9;" glyph-name="copyright" horiz-adv-x="817" d="M571 544L548 495Q493 528 434 528Q358 528 315 485T271 365Q271 290 316 246T434 202Q492 202 548 235L571 186Q512 148 428 148Q324 148 262 206T199 365Q199 466 260 524T428 582Q512
582 571 544ZM278 50T408 50T630 142T723 365T631 588T408 680T186 588T93 365T185 142ZM560 -3T408 -3T148 105T40 365T148 625T408 733T668 625T777 365T669 105Z" />
<glyph unicode="&#xaa;" glyph-name="ordfeminine" horiz-adv-x="649" d="M90 203V252H559V203H90ZM412 531H373Q293 531 250 505T206 434Q206 400 227 381T284 361Q338 361 375 397T412 487V531ZM139 429Q139 499 200 540T373 581H412V584Q412 641 391 663T316
685Q241 685 173 648L161 703Q230 740 317 740Q406 740 444 704T483 583V428Q483 372 495 316H427Q420 349 419 380H417Q368 307 268 307Q209 307 174 339T139 429Z" />
<glyph unicode="&#xab;" glyph-name="guillemotleft" horiz-adv-x="720" d="M625 458L408 291V289L625 122V50L358 260V320L625 530V458ZM332 458L114 291V289L332 122V50L65 260V320L332 530V458Z" />
<glyph unicode="&#xac;" glyph-name="logicalnot" horiz-adv-x="657" d="M60 373V437H567V153H497V373H60Z" />
<glyph unicode="&#xad;" glyph-name="uni00AD" horiz-adv-x="467" d="M80 257V323H387V257H80Z" />
<glyph unicode="&#xae;" glyph-name="registered" horiz-adv-x="817" d="M329 328V153H260V574Q313 582 391 582Q574 582 574 463Q574 421 548 391T475 350V349Q506 335 533 274L587 153H514L464 269Q446 308 431 318T376 328H329ZM329 379H378Q504 379 504 457Q504
530 387 530Q359 530 329 525V379ZM560 -3T408 -3T148 105T40 365T148 625T408 733T668 625T777 365T669 105ZM278 50T408 50T630 142T723 365T631 588T408 680T186 588T93 365T185 142Z" />
<glyph unicode="&#xaf;" glyph-name="overscore" horiz-adv-x="467" d="M60 643V703H407V643H60Z" />
<glyph unicode="&#xb0;" glyph-name="degree" horiz-adv-x="397" d="M45 523T45 587T89 695T198 740T307 696T352 587T307 478T198 433T90 478ZM105 626T105 587T132 521T198 493T264 520T292 587T265 653T198 680T132 653Z" />
<glyph unicode="&#xb1;" glyph-name="plusminus" horiz-adv-x="753" d="M90 -40V23H663V-40H90ZM410 650V405H663V342H410V97H343V342H90V405H343V650H410Z" />
<glyph unicode="&#xb2;" glyph-name="uni00B2" horiz-adv-x="380" d="M264 606Q264 683 182 683Q126 683 62 639L42 688Q70 709 112 722T190 736Q256 736 291 703T327 611Q327 557 287 502T133 345V344H331V292H51V344Q181 455 222 507T264 606Z" />
<glyph unicode="&#xb3;" glyph-name="uni00B3" horiz-adv-x="380" d="M54 730H325V678L182 548V547H198Q262 547 296 516T331 427Q331 358 291 322T174 286Q104 286 48 320L67 367Q117 337 169 337Q271 337 271 425Q271 461 247 481T151 502H113V549L250 677V678H54V730Z" />
<glyph unicode="&#xb4;" glyph-name="acute" horiz-adv-x="270" d="M115 590H40L153 757H255L115 590Z" />
<glyph unicode="&#xb5;" glyph-name="mu" horiz-adv-x="563" d="M415 520H488V0H418L417 84H415Q387 40 343 15T250 -10Q178 -10 147 30V-220H75V520H147V197Q147 117 173 85T262 53Q322 53 368 107T415 237V520Z" />
<glyph unicode="&#xb6;" glyph-name="paragraph" horiz-adv-x="630" d="M265 270Q170 270 103 337T35 500T102 662T265 730H545V-140H475V667H335V-140H265V270Z" />
<glyph unicode="&#xb7;" glyph-name="middot" horiz-adv-x="283" d="M95 220V360H188V220H95Z" />
<glyph unicode="&#xb8;" glyph-name="cedilla" horiz-adv-x="416" d="M228 0H300Q341 -48 341 -102Q341 -154 299 -187T166 -220Q99 -220 45 -196L56 -136Q102 -160 159 -160Q268 -160 268 -84Q268 -36 228 0Z" />
<glyph unicode="&#xb9;" glyph-name="uni00B9" horiz-adv-x="380" d="M189 657L80 552L57 603L190 730H254V292H190V657H189Z" />
<glyph unicode="&#xba;" glyph-name="ordmasculine" horiz-adv-x="649" d="M90 203V252H559V203H90ZM126 424T126 524T179 682T325 740T470 682T524 524T471 366T325 308T180 366ZM265 364T325 364T419 406T453 524T419 642T325 684T231 642T197 524T231 406Z" />
<glyph unicode="&#xbb;" glyph-name="guillemotright" horiz-adv-x="720" d="M95 458V530L362 320V260L95 50V122L312 289V291L95 458ZM388 458V530L655 320V260L388 50V122L606 289V291L388 458Z" />
<glyph unicode="&#xbc;" glyph-name="onequarter" horiz-adv-x="820" d="M156 657L47 552L24 603L157 730H221V292H157V657H156ZM711 730L215 0H143L640 730H711ZM714 99V0H655V99H442V149L655 438H714V149H784V99H714ZM655 149V355H654L504 151V149H655Z" />
<glyph unicode="&#xbd;" glyph-name="onehalf" horiz-adv-x="820" d="M712 314Q712 391 630 391Q574 391 510 347L490 396Q518 417 560 430T638 444Q704 444 739 411T775 319Q775 265 735 210T581 53V52H779V0H499V52Q629 163 670 215T712 314ZM156 657L47 552L24
603L157 730H221V292H157V657H156ZM674 730L178 0H107L603 730H674Z" />
<glyph unicode="&#xbe;" glyph-name="threequarters" horiz-adv-x="820" d="M202 547Q266 547 300 516T335 427Q335 358 295 322T177 286Q108 286 52 320L71 367Q121 337 172 337Q275 337 275 425Q275 461 251 481T155 502H117V549L254 677V678H57V730H329V678L186
548V547H202ZM719 730L223 0H152L648 730H719ZM714 99V0H655V99H442V149L655 438H714V149H783V99H714ZM655 149V355H654L503 151V149H655Z" />
<glyph unicode="&#xbf;" glyph-name="questiondown" horiz-adv-x="611" d="M312 397V520H398V397H312ZM395 313Q395 267 384 231T349 167T307 124T255 86Q227 66 214 56T182 27T156 -13T148 -60Q148 -162 318 -162Q422 -162 531 -127L546 -195Q428 -230 308 -230Q191
-230 128 -187T65 -67Q65 -32 74 -4T105 48T143 85T190 119Q216 137 228 146T260 174T290 211T307 255T315 313H395Z" />
<glyph unicode="&#xc0;" glyph-name="Agrave" horiz-adv-x="693" d="M294 957L408 790H333L193 957H294ZM35 0L302 730H392L658 0H573L499 213H191L118 0H35ZM213 277H477L346 658H344L213 277Z" />
<glyph unicode="&#xc1;" glyph-name="Aacute" horiz-adv-x="693" d="M399 957H501L361 790H286L399 957ZM35 0L302 730H392L658 0H573L499 213H191L118 0H35ZM213 277H477L346 658H344L213 277Z" />
<glyph unicode="&#xc2;" glyph-name="Acircumflex" horiz-adv-x="693" d="M346 922L246 790H155L292 957H402L538 790H448L348 922H346ZM35 0L302 730H392L658 0H573L499 213H191L118 0H35ZM213 277H477L346 658H344L213 277Z" />
<glyph unicode="&#xc3;" glyph-name="Atilde" horiz-adv-x="693" d="M468 930H532Q532 800 450 800Q405 800 336 846Q283 882 258 882Q225 882 225 800H162Q162 940 243 940Q290 940 357 895Q412 858 435 858Q468 858 468 930ZM35 0L302 730H392L658 0H573L499
213H191L118 0H35ZM213 277H477L346 658H344L213 277Z" />
<glyph unicode="&#xc4;" glyph-name="Adieresis" horiz-adv-x="693" d="M410 810V937H483V810H410ZM210 810V937H283V810H210ZM35 0L302 730H392L658 0H573L499 213H191L118 0H35ZM213 277H477L346 658H344L213 277Z" />
<glyph unicode="&#xc5;" glyph-name="Aring" horiz-adv-x="693" d="M378 967T347 967T293 945T270 890T293 836T347 813T400 835T423 890T401 944ZM35 0L302 730H392L658 0H573L499 213H191L118 0H35ZM470 941T470 890T434 803T347 767T260 803T223 890T259 977T347
1013T434 977ZM213 277H477L346 658H344L213 277Z" />
<glyph unicode="&#xc6;" glyph-name="AE" horiz-adv-x="853" d="M302 730H778V663H478V425H758V361H478V67H778V0H402V213H188L115 0H35L302 730ZM210 277H402V663H344L210 277Z" />
<glyph unicode="&#xc7;" glyph-name="Ccedilla" horiz-adv-x="695" d="M410 673Q278 673 200 590T121 365T201 141T410 57Q514 57 603 114L630 54Q548 1 442 -8Q477 -53 477 -102Q477 -154 435 -187T302 -220Q234 -220 180 -196L191 -136Q237 -160 294 -160Q404
-160 404 -84Q404 -43 372 -9Q220 1 130 101T40 365Q40 538 138 639T403 740Q532 740 630 676L603 616Q514 673 410 673Z" />
<glyph unicode="&#xc8;" glyph-name="Egrave" horiz-adv-x="587" d="M278 957L391 790H316L176 957H278ZM165 663V425H492V361H165V67H512V0H85V730H512V663H165Z" />
<glyph unicode="&#xc9;" glyph-name="Eacute" horiz-adv-x="587" d="M284 790H209L322 957H424L284 790ZM165 663V425H492V361H165V67H512V0H85V730H512V663H165Z" />
<glyph unicode="&#xca;" glyph-name="Ecircumflex" horiz-adv-x="587" d="M299 922L199 790H108L245 957H355L492 790H401L301 922H299ZM165 663V425H492V361H165V67H512V0H85V730H512V663H165Z" />
<glyph unicode="&#xcb;" glyph-name="Edieresis" horiz-adv-x="587" d="M363 810V937H437V810H363ZM163 810V937H237V810H163ZM165 663V425H492V361H165V67H512V0H85V730H512V663H165Z" />
<glyph unicode="&#xcc;" glyph-name="Igrave" horiz-adv-x="317" d="M89 957L202 790H127L-13 957H89ZM115 0V730H202V0H115Z" />
<glyph unicode="&#xcd;" glyph-name="Iacute" horiz-adv-x="317" d="M190 790H115L228 957H330L190 790ZM115 0V730H202V0H115Z" />
<glyph unicode="&#xce;" glyph-name="Icircumflex" horiz-adv-x="315" d="M157 922L57 790H-34L103 957H213L349 790H259L159 922H157ZM114 0V730H201V0H114Z" />
<glyph unicode="&#xcf;" glyph-name="Idieresis" horiz-adv-x="317" d="M222 810V937H295V810H222ZM22 810V937H95V810H22ZM115 0V730H202V0H115Z" />
<glyph unicode="&#xd0;" glyph-name="Eth" horiz-adv-x="748" d="M35 349V413H152V724Q242 740 328 740Q511 740 609 646T708 375Q708 186 610 88T328 -10Q240 -10 152 6V349H35ZM232 413H415V349H232V66Q277 57 328 57Q632 57 632 375Q632 522 555 597T328 673Q277
673 232 664V413Z" />
<glyph unicode="&#xd1;" glyph-name="Ntilde" horiz-adv-x="713" d="M367 895Q423 858 445 858Q478 858 478 930H542Q542 800 460 800Q415 800 346 846Q293 882 268 882Q235 882 235 800H172Q172 940 253 940Q300 940 367 895ZM85 0V730H168L548 130H550V730H628V0H546L166
600H164V0H85Z" />
<glyph unicode="&#xd2;" glyph-name="Ograve" horiz-adv-x="793" d="M344 957L458 790H383L243 957H344ZM558 -10T397 -10T138 92T40 365T138 637T397 740T655 638T753 365T656 93ZM397 57Q521 57 596 140T672 365T597 589T397 673Q272 673 197 590T121 365T196
141T397 57Z" />
<glyph unicode="&#xd3;" glyph-name="Oacute" horiz-adv-x="793" d="M411 790H336L449 957H551L411 790ZM558 -10T397 -10T138 92T40 365T138 637T397 740T655 638T753 365T656 93ZM397 57Q521 57 596 140T672 365T597 589T397 673Q272 673 197 590T121 365T196
141T397 57Z" />
<glyph unicode="&#xd4;" glyph-name="Ocircumflex" horiz-adv-x="793" d="M396 922L296 790H205L342 957H452L588 790H498L398 922H396ZM558 -10T397 -10T138 92T40 365T138 637T397 740T655 638T753 365T656 93ZM397 57Q521 57 596 140T672 365T597 589T397 673Q272
673 197 590T121 365T196 141T397 57Z" />
<glyph unicode="&#xd5;" glyph-name="Otilde" horiz-adv-x="793" d="M293 940Q340 940 407 895Q462 858 485 858Q518 858 518 930H582Q582 800 500 800Q455 800 386 846Q333 882 308 882Q275 882 275 800H212Q212 940 293 940ZM558 -10T397 -10T138 92T40 365T138
637T397 740T655 638T753 365T656 93ZM397 57Q521 57 596 140T672 365T597 589T397 673Q272 673 197 590T121 365T196 141T397 57Z" />
<glyph unicode="&#xd6;" glyph-name="Odieresis" horiz-adv-x="793" d="M460 810V937H533V810H460ZM260 810V937H333V810H260ZM558 -10T397 -10T138 92T40 365T138 637T397 740T655 638T753 365T656 93ZM397 57Q521 57 596 140T672 365T597 589T397 673Q272 673
197 590T121 365T196 141T397 57Z" />
<glyph unicode="&#xd7;" glyph-name="multiply" horiz-adv-x="606" d="M561 81L512 32L303 241L94 32L45 81L254 290L45 499L95 548L303 339L512 548L561 499L353 290L561 81Z" />
<glyph unicode="&#xd8;" glyph-name="Oslash" horiz-adv-x="803" d="M45 365Q45 535 143 637T402 740Q515 740 599 688L654 761L710 719L654 645Q758 541 758 365Q758 195 661 93T402 -10Q288 -10 204 42L150 -31L94 11L149 85Q45 189 45 365ZM248 100Q314 57
402 57Q526 57 601 140T677 365Q677 500 608 583L248 100ZM196 147L556 630Q490 673 402 673Q277 673 202 590T126 365Q126 231 196 147Z" />
<glyph unicode="&#xd9;" glyph-name="Ugrave" horiz-adv-x="683" d="M319 957L433 790H358L218 957H319ZM156 58T343 58T530 283V730H608V287Q608 141 540 66T342 -10T144 65T75 287V730H156V283Q156 58 343 58Z" />
<glyph unicode="&#xda;" glyph-name="Uacute" horiz-adv-x="683" d="M326 790H251L364 957H466L326 790ZM156 58T343 58T530 283V730H608V287Q608 141 540 66T342 -10T144 65T75 287V730H156V283Q156 58 343 58Z" />
<glyph unicode="&#xdb;" glyph-name="Ucircumflex" horiz-adv-x="683" d="M341 922L241 790H150L287 957H397L533 790H443L343 922H341ZM156 58T343 58T530 283V730H608V287Q608 141 540 66T342 -10T144 65T75 287V730H156V283Q156 58 343 58Z" />
<glyph unicode="&#xdc;" glyph-name="Udieresis" horiz-adv-x="683" d="M405 810V937H478V810H405ZM205 810V937H278V810H205ZM156 58T343 58T530 283V730H608V287Q608 141 540 66T342 -10T144 65T75 287V730H156V283Q156 58 343 58Z" />
<glyph unicode="&#xdd;" glyph-name="Yacute" horiz-adv-x="670" d="M319 790H244L357 957H459L319 790ZM124 730L335 376H337L549 730H640L377 309V0H293V309L30 730H124Z" />
<glyph unicode="&#xde;" glyph-name="Thorn" horiz-adv-x="610" d="M486 312T486 392T435 513T282 555Q227 555 165 545V234Q223 226 282 226Q381 226 433 269ZM165 168V0H85V730H165V613Q222 620 288 620Q424 620 494 563T565 398Q565 282 494 222T288 162Q222
162 165 168Z" />
<glyph unicode="&#xdf;" glyph-name="germandbls" horiz-adv-x="593" d="M401 405Q401 394 424 368T477 313T529 241T553 155Q553 -10 363 -10Q298 -10 220 10L227 78Q302 58 355 58Q474 58 474 167Q474 197 450 233T396 298T343 356T318 405Q318 425 348 461T408
540T438 617Q438 695 303 695Q220 695 190 664T160 545V0H80V543Q80 659 130 709T300 760Q405 760 459 725T513 623Q513 590 496 553T457 490T419 440T401 405Z" />
<glyph unicode="&#xe0;" glyph-name="agrave" horiz-adv-x="548" d="M226 757L339 590H264L124 757H226ZM265 530Q374 530 421 485T468 337V140Q468 69 483 0H413Q405 39 403 92H401Q374 44 323 17T208 -10Q136 -10 93 30T50 140Q50 227 126 278T342 330H395V335Q395
411 367 440T265 470Q171 470 90 424L77 483Q163 530 265 530ZM122 143Q122 98 150 73T225 47Q294 47 344 96T395 218V274H342Q237 274 180 239T122 143Z" />
<glyph unicode="&#xe1;" glyph-name="aacute" horiz-adv-x="548" d="M331 757H432L292 590H217L331 757ZM265 530Q374 530 421 485T468 337V140Q468 69 483 0H413Q405 39 403 92H401Q374 44 323 17T208 -10Q136 -10 93 30T50 140Q50 227 126 278T342 330H395V335Q395
411 367 440T265 470Q171 470 90 424L77 483Q163 530 265 530ZM122 143Q122 98 150 73T225 47Q294 47 344 96T395 218V274H342Q237 274 180 239T122 143Z" />
<glyph unicode="&#xe2;" glyph-name="acircumflex" horiz-adv-x="548" d="M277 722L177 590H87L223 757H333L470 590H379L279 722H277ZM265 530Q374 530 421 485T468 337V140Q468 69 483 0H413Q405 39 403 92H401Q374 44 323 17T208 -10Q136 -10 93 30T50 140Q50
227 126 278T342 330H395V335Q395 411 367 440T265 470Q171 470 90 424L77 483Q163 530 265 530ZM122 143Q122 98 150 73T225 47Q294 47 344 96T395 218V274H342Q237 274 180 239T122 143Z" />
<glyph unicode="&#xe3;" glyph-name="atilde" horiz-adv-x="548" d="M288 685Q344 648 367 648Q400 648 400 720H463Q463 590 382 590Q337 590 268 636Q215 672 190 672Q157 672 157 590H93Q93 730 175 730Q220 730 288 685ZM265 530Q374 530 421 485T468 337V140Q468
69 483 0H413Q405 39 403 92H401Q374 44 323 17T208 -10Q136 -10 93 30T50 140Q50 227 126 278T342 330H395V335Q395 411 367 440T265 470Q171 470 90 424L77 483Q163 530 265 530ZM122 143Q122 98 150 73T225 47Q294 47 344 96T395 218V274H342Q237 274 180 239T122
143Z" />
<glyph unicode="&#xe4;" glyph-name="adieresis" horiz-adv-x="548" d="M342 610V737H415V610H342ZM142 610V737H215V610H142ZM265 530Q374 530 421 485T468 337V140Q468 69 483 0H413Q405 39 403 92H401Q374 44 323 17T208 -10Q136 -10 93 30T50 140Q50 227 126
278T342 330H395V335Q395 411 367 440T265 470Q171 470 90 424L77 483Q163 530 265 530ZM122 143Q122 98 150 73T225 47Q294 47 344 96T395 218V274H342Q237 274 180 239T122 143Z" />
<glyph unicode="&#xe5;" glyph-name="aring" horiz-adv-x="548" d="M278 757Q247 757 225 735T202 680T224 626T278 603Q310 603 332 625T355 680T333 734T278 757ZM265 530Q374 530 421 485T468 337V140Q468 69 483 0H413Q405 39 403 92H401Q374 44 323 17T208
-10Q136 -10 93 30T50 140Q50 227 126 278T342 330H395V335Q395 411 367 440T265 470Q171 470 90 424L77 483Q163 530 265 530ZM402 731T402 680T366 593T278 557T191 593T155 680T191 767T278 803T365 767ZM122 143Q122 98 150 73T225 47Q294 47 344 96T395 218V274H342Q237
274 180 239T122 143Z" />
<glyph unicode="&#xe6;" glyph-name="ae" horiz-adv-x="888" d="M471 290H772Q771 377 732 424T622 471Q556 471 515 423T471 290ZM471 232Q473 149 520 99T638 49Q717 49 788 88L808 32Q727 -10 632 -10Q567 -10 515 21T433 111Q372 -10 208 -10Q136 -10 93 30T50
140Q50 223 126 276T342 330H400V333Q399 413 369 441T265 470Q171 470 90 424L77 483Q163 530 265 530Q411 530 451 444Q512 530 622 530Q728 530 785 462T843 265Q843 242 842 232H471ZM122 143Q122 98 150 73T225 47Q304 47 352 98T400 240V274H342Q239 274
181 237T122 143Z" />
<glyph unicode="&#xe7;" glyph-name="ccedilla" horiz-adv-x="522" d="M437 84L457 25Q407 1 355 -6Q392 -53 392 -102Q392 -154 350 -187T217 -220Q149 -220 95 -196L106 -136Q152 -160 209 -160Q319 -160 319 -84Q319 -42 288 -10Q177 -6 109 67T40 260Q40 387
109 458T300 530Q382 530 457 495L437 434Q370 469 303 469Q215 469 166 415T117 260Q117 164 168 107T303 50Q373 50 437 84Z" />
<glyph unicode="&#xe8;" glyph-name="egrave" horiz-adv-x="552" d="M261 757L374 590H299L159 757H261ZM115 232Q117 147 167 98T297 49Q374 49 450 89L470 32Q386 -10 290 -10Q178 -10 109 63T40 260Q40 386 104 458T280 530Q388 530 447 462T507 265Q507 252
505 232H115ZM115 290H435Q434 377 393 424T280 471Q205 471 162 424T115 290Z" />
<glyph unicode="&#xe9;" glyph-name="eacute" horiz-adv-x="552" d="M267 590H192L306 757H407L267 590ZM115 232Q117 147 167 98T297 49Q374 49 450 89L470 32Q386 -10 290 -10Q178 -10 109 63T40 260Q40 386 104 458T280 530Q388 530 447 462T507 265Q507 252
505 232H115ZM115 290H435Q434 377 393 424T280 471Q205 471 162 424T115 290Z" />
<glyph unicode="&#xea;" glyph-name="ecircumflex" horiz-adv-x="552" d="M282 722L182 590H92L228 757H338L475 590H384L284 722H282ZM115 232Q117 147 167 98T297 49Q374 49 450 89L470 32Q386 -10 290 -10Q178 -10 109 63T40 260Q40 386 104 458T280 530Q388
530 447 462T507 265Q507 252 505 232H115ZM115 290H435Q434 377 393 424T280 471Q205 471 162 424T115 290Z" />
<glyph unicode="&#xeb;" glyph-name="edieresis" horiz-adv-x="552" d="M347 610V737H420V610H347ZM147 610V737H220V610H147ZM115 232Q117 147 167 98T297 49Q374 49 450 89L470 32Q386 -10 290 -10Q178 -10 109 63T40 260Q40 386 104 458T280 530Q388 530 447
462T507 265Q507 252 505 232H115ZM115 290H435Q434 377 393 424T280 471Q205 471 162 424T115 290Z" />
<glyph unicode="&#xec;" glyph-name="igrave" horiz-adv-x="318" d="M90 757L203 590H128L-12 757H90ZM126 0V520H203V0H126Z" />
<glyph unicode="&#xed;" glyph-name="iacute" horiz-adv-x="318" d="M190 590H115L228 757H330L190 590ZM115 0V520H192V0H115Z" />
<glyph unicode="&#xee;" glyph-name="icircumflex" horiz-adv-x="307" d="M155 722H153L53 590H-38L99 757H209L345 590H255L155 722ZM115 0V520H192V0H115Z" />
<glyph unicode="&#xef;" glyph-name="idieresis" horiz-adv-x="307" d="M217 610V737H290V610H217ZM17 610V737H90V610H17ZM115 0V520H192V0H115Z" />
<glyph unicode="&#xf0;" glyph-name="eth" horiz-adv-x="560" d="M280 50Q346 50 393 106T440 260Q440 358 398 412T280 467T163 413T120 260T166 106T280 50ZM280 -10Q177 -10 111 63T45 260Q45 379 109 451T280 523Q351 523 401 478L402 479Q370 554 310 604L131
527L111 577L257 640Q201 669 125 680L146 740Q253 727 332 672L478 735L498 686L379 634Q515 504 515 260Q515 137 448 64T280 -10Z" />
<glyph unicode="&#xf1;" glyph-name="ntilde" horiz-adv-x="568" d="M182 730Q228 730 295 685Q350 648 373 648Q407 648 407 720H470Q470 590 388 590Q343 590 274 636Q221 672 197 672Q163 672 163 590H100Q100 730 182 730ZM75 520H145L146 427H148Q178 475
224 502T325 530Q413 530 455 476T498 303V0H426V297Q426 394 398 431T302 469Q244 469 196 412T148 278V0H75V520Z" />
<glyph unicode="&#xf2;" glyph-name="ograve" horiz-adv-x="570" d="M233 757L346 590H271L131 757H233ZM364 470T285 470T161 415T115 260T160 106T285 50T409 105T455 260T410 414ZM396 -10T285 -10T107 63T40 260T107 457T285 530T463 457T530 260T463 63Z" />
<glyph unicode="&#xf3;" glyph-name="oacute" horiz-adv-x="570" d="M299 590H224L337 757H439L299 590ZM364 470T285 470T161 415T115 260T160 106T285 50T409 105T455 260T410 414ZM396 -10T285 -10T107 63T40 260T107 457T285 530T463 457T530 260T463 63Z" />
<glyph unicode="&#xf4;" glyph-name="ocircumflex" horiz-adv-x="570" d="M284 722L184 590H93L230 757H340L477 590H386L286 722H284ZM364 470T285 470T161 415T115 260T160 106T285 50T409 105T455 260T410 414ZM396 -10T285 -10T107 63T40 260T107 457T285
530T463 457T530 260T463 63Z" />
<glyph unicode="&#xf5;" glyph-name="otilde" horiz-adv-x="570" d="M182 730Q228 730 295 685Q350 648 373 648Q407 648 407 720H470Q470 590 388 590Q343 590 274 636Q221 672 197 672Q163 672 163 590H100Q100 730 182 730ZM364 470T285 470T161 415T115 260T160
106T285 50T409 105T455 260T410 414ZM396 -10T285 -10T107 63T40 260T107 457T285 530T463 457T530 260T463 63Z" />
<glyph unicode="&#xf6;" glyph-name="odieresis" horiz-adv-x="570" d="M348 610V737H422V610H348ZM148 610V737H222V610H148ZM364 470T285 470T161 415T115 260T160 106T285 50T409 105T455 260T410 414ZM396 -10T285 -10T107 63T40 260T107 457T285 530T463
457T530 260T463 63Z" />
<glyph unicode="&#xf7;" glyph-name="divide" horiz-adv-x="733" d="M323 0V137H410V0H323ZM323 443V580H410V443H323ZM80 258V322H653V258H80Z" />
<glyph unicode="&#xf8;" glyph-name="oslash" horiz-adv-x="580" d="M45 260Q45 384 112 457T290 530Q369 530 428 491L469 546L511 514L469 457Q535 383 535 260Q535 136 468 63T290 -10Q211 -10 152 29L111 -26L69 6L111 63Q45 137 45 260ZM191 81Q233 50 290
50Q369 50 414 105T460 260Q460 345 426 399L191 81ZM154 121L389 439Q347 470 290 470Q211 470 166 415T120 260Q120 175 154 121Z" />
<glyph unicode="&#xf9;" glyph-name="ugrave" horiz-adv-x="558" d="M259 757L373 590H298L158 757H259ZM142 520V197Q142 117 168 85T257 53Q315 53 362 109T410 242V520H483V0H413L412 93H410Q380 45 334 18T233 -10Q149 -10 110 37T70 190V520H142Z" />
<glyph unicode="&#xfa;" glyph-name="uacute" horiz-adv-x="558" d="M266 590H191L304 757H406L266 590ZM142 520V197Q142 117 168 85T257 53Q315 53 362 109T410 242V520H483V0H413L412 93H410Q380 45 334 18T233 -10Q149 -10 110 37T70 190V520H142Z" />
<glyph unicode="&#xfb;" glyph-name="ucircumflex" horiz-adv-x="558" d="M181 590H90L227 757H337L473 590H383L283 722H281L181 590ZM142 520V197Q142 117 168 85T257 53Q315 53 362 109T410 242V520H483V0H413L412 93H410Q380 45 334 18T233 -10Q149 -10 110
37T70 190V520H142Z" />
<glyph unicode="&#xfc;" glyph-name="udieresis" horiz-adv-x="558" d="M345 610V737H418V610H345ZM145 610V737H218V610H145ZM142 520V197Q142 117 168 85T257 53Q315 53 362 109T410 242V520H483V0H413L412 93H410Q380 45 334 18T233 -10Q149 -10 110 37T70
190V520H142Z" />
<glyph unicode="&#xfd;" glyph-name="yacute" horiz-adv-x="557" d="M261 590H186L299 757H401L261 590ZM271 92H273L444 520H522L212 -220H134L232 3L35 520H116L271 92Z" />
<glyph unicode="&#xfe;" glyph-name="thorn" horiz-adv-x="573" d="M318 530Q416 530 472 461T528 260Q528 132 471 61T318 -10Q205 -10 150 81H148V-220H75V750H148V432H150Q205 530 318 530ZM456 260Q456 362 416 416T302 470Q233 470 191 416T148 267V253Q148
156 191 103T302 50Q373 50 414 104T456 260Z" />
<glyph unicode="&#xff;" glyph-name="ydieresis" horiz-adv-x="557" d="M340 610V737H413V610H340ZM140 610V737H213V610H140ZM271 92H273L444 520H522L212 -220H134L232 3L35 520H116L271 92Z" />
<glyph unicode="&#x2013;" glyph-name="endash" horiz-adv-x="471" d="M-2 263V317H473V263H-2Z" />
<glyph unicode="&#x2014;" glyph-name="emdash" horiz-adv-x="946" d="M-2 263V317H948V263H-2Z" />
<glyph unicode="&#x2018;" glyph-name="quoteleft" horiz-adv-x="289" d="M145 523H45L145 770H219L145 523Z" />
<glyph unicode="&#x2019;" glyph-name="quoteright" horiz-adv-x="289" d="M244 770L144 523H70L143 770H244Z" />
<glyph unicode="&#x201a;" glyph-name="quotesinglbase" horiz-adv-x="304" d="M133 137H234L134 -110H60L133 137Z" />
<glyph unicode="&#x201c;" glyph-name="quotedblleft" horiz-adv-x="458" d="M393 770L320 523H226L326 770H393ZM134 523H40L140 770H207L134 523Z" />
<glyph unicode="&#x201d;" glyph-name="quotedblright" horiz-adv-x="458" d="M318 523H251L325 770H418L318 523ZM132 523H65L138 770H232L132 523Z" />
<glyph unicode="&#x201e;" glyph-name="quotedblbase" horiz-adv-x="473" d="M308 -110H241L315 137H408L308 -110ZM122 -110H55L128 137H222L122 -110Z" />
<glyph unicode="&#x2022;" glyph-name="bullet" horiz-adv-x="457" d="M271 262T228 262T155 292T125 365T155 438T228 468T301 438T332 365T302 292Z" />
<glyph unicode="&#x2039;" glyph-name="guilsinglleft" horiz-adv-x="390" d="M305 77H225L65 290L225 503H305L144 290L305 77Z" />
<glyph unicode="&#x203a;" glyph-name="guilsinglright" horiz-adv-x="390" d="M85 77L247 290L85 503H165L325 290L165 77H85Z" />
</font>
</defs>
</svg>
